[ Сегодня идет свободное скачивание без начисления Download ]


Статистика раздачи
Скачал: [ 2 ]
 
   
 
 
 
 
Демоны старшей школы 4
Герой
High School DxD Hero

Информация
Жанры: экшен комедия демоны этти гарем романтика школа
Озвучка: Lupin Itashi Sharon Hekomi
Аниме-сезон: Весна 2018
Тип: ТВ (13 эп.), 25 мин.
Перевод: LolWhat
Оформление: Keitaro
Тайминг: Whitecat
Описание
Иссэй Хёдо был обычным озабоченным старшеклассником. Со своими друзьями-гиками они днями напролёт мечтали о сиськах. Но его беззаботной школьной жизни суждено было скоро закончиться. Однажды он встречает роковую красотку-демона, что пришла по его душонку. И распрощался бы с жизнью своей наш герой, но ему повезло. Его спасительница, демоническая госпожа Риас Гремори — звезда школы и глава оккультного кружка — сохранила ему жизнь, обратив своим демоном-миньоном. Казалось бы, такие потрясения перевернут любую жизнь с ног на голову, но Иссэй крепок духом. Он решает забраться на самый верх аристократического общества Ада, чтобы обзавестись гаремом из грудастых красавиц.
В конце третьего сезона коварный Локи был повержен. Но у семьи Риас Гремори нет времени на отдых, им предстоит сражение с сильнейшим из младших демонов ада — Сайраоргом. Герои без устали тренируются, совершенствуя свои способности, чтобы стать самыми достойными кандидатами для восхождения в высшее сословие демонов.

Файл
Качество: HDTV-Rip 720p
Язык озвучки: Русский и Японский
Формат: MKV
Видео: | h264, 8 bit, 1280x720, 1773 kbps, 23.976 fps
Аудио1: RUS - AAC, 48.0 KHz, 192 kbps, 2 ch;
Аудио2: JPN - AAC, 44.1 KHz, 128 kbps, 2 ch;
Субтитры: RUS Полные + Надписи

MediaInfo:


General
Unique ID : 183274615982565838073647263007810660891 (0x89E168377D17B9DBA65E5E3239122A1B)
Complete name : C:\High School DxD Hero - AniLibria.TV [HDTV-Rip 720p]\High_School_DxD_Hero_[00]_[Anilibria_TV]_[HDTV-Rip_720p].mkv
Format : Matroska
Format version : Version 4 / Version 2
File size : 430 MiB
Duration : 24 min 0 s
Overall bit rate : 2 506 kb/s
Encoded date : UTC 2018-04-11 16:43:28
Writing application : mkvmerge v9.3.1 ('Mask Machine') 64bit
Writing library : libebml v1.3.4 + libmatroska v1.4.5
Attachments : d9464-arkhip_font.ttf / 2305.ttf / 10175.otf / comic.ttf
Video
ID : 1
Format : AVC
Format/Info : Advanced Video Codec
Format profile : [email protected]
Format settings : CABAC / 4 Ref Frames
Format settings, CABAC : Yes
Format settings, ReFrames : 4 frames
Codec ID : V_MPEG4/ISO/AVC
Duration : 24 min 0 s
Bit rate : 2 106 kb/s
Width : 1 280 pixels
Height : 720 pixels
Display aspect ratio : 16:9
Frame rate mode : Constant
Frame rate : 23.976 (24000/1001) FPS
Color space : YUV
Chroma subsampling : 4:2:0
Bit depth : 8 bits
Scan type : Progressive
Bits/(Pixel*Frame) : 0.095
Stream size : 362 MiB (84%)
Title : [Ohys-Raws]
Writing library : x264 core 155 r2867+82 a249126 t_mod_Custom_2 [[email protected] X86_64]
Encoding settings : cabac=1 / ref=3 / deblock=1:0:0 / analyse=0x1:0x111 / me=hex / subme=7 / psy=1 / fade_compensate=0.00 / psy_rd=1.00:0.00 / mixed_ref=1 / me_range=16 / chroma_me=1 / trellis=1 / 8x8dct=0 / cqm=0 / deadzone=21,11 / fast_pskip=1 / chroma_qp_offset=-2 / threads=18 / lookahead_threads=3 / sliced_threads=0 / nr=0 / decimate=1 / interlaced=0 / bluray_compat=0 / constrained_intra=0 / fgo=0 / bframes=3 / b_pyramid=2 / b_adapt=1 / b_bias=0 / direct=1 / weightb=1 / open_gop=0 / weightp=2 / keyint=240 / keyint_min=1 / scenecut=40 / intra_refresh=0 / rc_lookahead=40 / rc=crf / mbtree=1 / crf=20.0000 / qcomp=0.60 / qpmin=0:0:0 / qpmax=69:69:69 / qpstep=4 / ip_ratio=1.40 / aq=1:1.50 / aq-sensitivity=10.00 / aq-factor=1.00:1.00:1.00 / aq2=0 / aq3=0
Language : Japanese
Default : Yes
Forced : Yes
Color range : Limited
Color primaries : BT.709
Transfer characteristics : BT.709
Matrix coefficients : BT.709
Audio #1
ID : 2
Format : AAC
Format/Info : Advanced Audio Codec
Format profile : LC
Codec ID : A_AAC-2
Duration : 24 min 0 s
Bit rate : 192 kb/s
Channel(s) : 2 channels
Channel positions : Front: L R
Sampling rate : 48.0 kHz
Frame rate : 46.875 FPS (1024 SPF)
Compression mode : Lossy
Stream size : 33.0 MiB (8%)
Title : Lupin & Itashi & Sharon & Hekomi
Language : Russian
Default : Yes
Forced : Yes
Audio #2
ID : 3
Format : AAC
Format/Info : Advanced Audio Codec
Format profile : LC
Codec ID : A_AAC-2
Duration : 24 min 0 s
Bit rate : 202 kb/s
Channel(s) : 2 channels
Channel positions : Front: L R
Sampling rate : 48.0 kHz
Frame rate : 46.875 FPS (1024 SPF)
Compression mode : Lossy
Stream size : 34.7 MiB (8%)
Title : Original
Language : Japanese
Default : No
Forced : No
Text #1
ID : 4
Format : ASS
Codec ID : S_TEXT/ASS
Codec ID/Info : Advanced Sub Station Alpha
Duration : 22 min 0 s
Bit rate : 54 b/s
Count of elements : 53
Compression mode : Lossless
Stream size : 8.77 KiB (0%)
Title : Надписи
Language : Russian
Default : Yes
Forced : Yes
Text #2
ID : 5
Format : ASS
Codec ID : S_TEXT/ASS
Codec ID/Info : Advanced Sub Station Alpha
Duration : 23 min 48 s
Bit rate : 154 b/s
Count of elements : 361
Compression mode : Lossless
Stream size : 26.9 KiB (0%)
Title : Полные
Language : Russian
Default : No
Forced : No

Скриншоты

[Цитировать]



Показать сообщения:    

Текущее время: 21-Окт 21:46

Часовой пояс: UTC + 6


Вы не можете начинать темы
Вы не можете отвечать на сообщения
Вы не можете редактировать свои сообщения
Вы не можете удалять свои сообщения
Вы не можете голосовать в опросах
Вы не можете прикреплять файлы к сообщениям
Вы не можете скачивать файлы

!ВНИМАНИЕ!
Сайт не предоставляет электронные версии произведений, а занимается лишь коллекционированием и каталогизацией ссылок, присылаемых и публикуемых на форуме нашими читателями. Если вы являетесь правообладателем какого-либо представленного материала и не желаете, чтобы ссылка на него находилась в нашем каталоге, свяжитесь с нами, и мы незамедлительно удалим ее. Файлы для обмена на трекере предоставлены пользователями сайта, и администрация не несет ответственности за их содержание. Просьба не заливать файлы, защищенные авторскими правами, а также файлы нелегального содержания!